#TITLE:250BPM;
#SUBTITLE:;
#ARTIST:AKIRA YAMAOKA;
#TITLETRANSLIT:;
#SUBTITLETRANSLIT:;
#ARTISTTRANSLIT:;
#CREDIT:;
#BANNER:250bpm.png;
#BACKGROUND:250bpm-bg.png;
#LYRICSPATH:;
#CDTITLE:;
#MUSIC:250bpm.mp3;
#OFFSET:-0.315;
#SAMPLESTART:22.424;
#SAMPLELENGTH:12.000;
#SELECTABLE:YES;
#BPMS:0.000=250.120,112.000=125.059,140.000=250.120;
#STOPS:;
#BGCHANGES:;
// cache tags:
#FIRSTBEAT:0.000;
#LASTBEAT:316.000;
#SONGFILENAME:Songs/nhac/250bpm/250bpm.sm;
#HASMUSIC:1;
#HASBANNER:1;
#MUSICLENGTH:85.975;
// end cache tags

//---------------dance-single - ----------------
#NOTES:
     dance-single:
     :
     Challenge:
     14:
     1.000,1.000,1.000,0.000,1.000,740.000,151.000,0.000,0.000,0.000:
0011
0011
1100
1100
0110
0000
0101
0010
,
1100
1100
0110
0101
1001
0000
0110
0100
,
0101
1100
1010
1100
1010
0001
0000
1000
,
0000
0100
0110
0001
0110
0100
0110
0000
,
1100
0010
0001
0100
0010
0100
0001
1000
,
0010
0100
0001
1000
0100
1000
0010
0100
,
0101
0001
1000
0100
1000
0001
0010
0100
,
0001
1000
0100
0010
0001
0010
0100
1000
,
1001
0100
0001
1000
0100
1000
0001
0010
,
0100
0010
0001
1000
0100
0001
0100
0010
,
0011
1000
0100
1000
1100
0001
0010
0001
,
0110
1000
0100
0010
0101
0100
0001
1000
,
1100
0000
0000
0101
0000
0000
1100
0000
,
0000
1000
1000
1000
,
1100
0000
0000
0101
0000
0000
1100
0000
,
1000
0000
0000
0000
0001
0100
0010
0000
1000
0100
0001
0000
1000
0100
0010
0000
,
0001
0000
0101
1010
1100
0101
1100
0011
,
0101
0000
0000
0000
1000
0100
0010
0001
0100
0000
0000
0000
0001
0100
0010
1000
,
0101
0001
0001
0001
1100
1000
1000
1000
,
0011
0010
0010
0010
1100
0100
0100
0100
,
1100
1000
0101
0001
1100
0011
0101
0011
,
1001
0110
0101
1010
1000
0100
0010
0001
,
1100
1001
0101
0110
0011
1100
0101
0110
,
0101
1100
0110
1001
0010
0001
1000
0100
,
1001
1000
0001
1000
1100
1100
1100
1100
,
1001
0001
1000
0001
0101
0101
0101
0101
,
0010
1000
0100
0010
1000
0001
0100
0010
,
0001
1000
0100
0010
0100
0001
1000
0010
,
0101
1000
0100
0010
1001
0100
1000
0001
0101
0010
1000
0100
1010
1000
0001
0010
,
0110
0100
0010
0100
1100
1100
1100
1100
,
1000
0100
0001
1000
0010
0100
0001
0010
1000
0100
1000
0010
1000
0001
0010
0100
,
1001
0000
0000
0000
1100
0000
0000
0000
0101
0000
0000
0000
1100
0000
0000
0100
,
0010
0001
1000
0010
0100
0001
1000
0001
,
1000
0100
0010
0001
0100
0010
0100
0001
0010
0100
0010
0001
1000
0010
0100
0001
0100
0010
1000
0001
1000
0001
1000
0100
1000
0010
0100
0010
0100
0001
0010
0100
,
1010
1000
1100
1000
0011
0001
0101
0001
,
1001
0010
0100
0001
,
1000
0000
1000
0100
,
0110
0010
1000
0001
,
1100
0001
0001
1000
,
1100
0011
0101
1100
0011
0110
1001
0110
,
1100
0101
1010
1010
0101
1001
0110
0110
,
0101
1010
0011
1100
1100
0011
0101
0110
,
1010
1100
1010
0110
0101
0011
1010
0110
,
1000
0100
0001
0100
0010
0001
1000
0010
,
0100
0001
0010
0100
0010
0001
1000
0010
,
0100
1000
0001
1000
0010
0100
1000
0001
,
0010
0001
1000
0001
0000
0010
0100
0001
,
1100
1000
1010
0000
0000
0101
0001
1001
,
0000
0000
1010
0010
0010
0101
0001
1001
,
1001
0000
1010
0000
0000
0101
0000
1001
,
0000
0000
1100
0100
1010
1010
0000
1001
,
1001
0000
1001
0000
0000
1100
1000
1010
,
0000
0000
0101
0000
0010
0011
0000
0010
,
1010
1000
0101
0000
0100
1000
0001
1000
,
0100
0100
0100
0100
,
1000
0001
0100
0001
0100
0010
1000
0001
,
0010
0100
1000
0001
0100
0001
1000
0010
,
0100
0001
1000
0010
1000
0100
0010
1000
,
0001
0100
0010
0001
0010
1000
0100
0010
,
0100
1000
0100
1000
0010
0100
0010
0100
,
0001
0010
0001
0010
1000
0001
0100
0010
,
1000
0001
0100
0010
0100
0010
1000
0100
,
0010
1000
0001
0100
0001
0010
1000
0100
,
1000
0100
0010
0001
0010
0100
1000
0010
0100
0010
1000
0010
1000
0100
0010
0001
,
0100
0001
0100
0001
0010
0100
1000
0001
0100
0010
0100
0001
0010
0100
0010
0100
,
1000
0001
1000
0010
0100
0010
1000
0001
1000
0100
0010
0100
1000
0010
0100
0001
,
0010
0100
0010
0001
0100
0010
1000
0001
1000
0010
0100
0001
0010
0001
1000
0100
,
0010
0001
1000
0100
0010
0001
0010
0100
1000
0010
0100
0001
0010
0100
1000
0001
,
1000
0100
0010
0001
0010
0100
1000
0010
0100
0010
1000
0010
1000
0100
0010
0001
,
0100
0001
0100
0001
0010
0100
1000
0001
0100
0010
0100
0001
0010
0100
0010
0100
,
1000
0001
1000
0010
0100
0010
1000
0001
1000
0100
0010
0100
1000
0010
0100
0001
,
0010
0100
0010
0001
0100
0010
1000
0001
1000
0010
0100
0001
0010
0001
1000
0100
,
0010
0001
1000
0100
0010
0001
0010
0100
1000
0010
0100
0001
0010
0100
1000
0001
,
1000
0100
0010
0001
0100
0001
1000
0001
1000
0001
1000
0010
0100
0010
0100
0001
,
1000
0010
0100
0010
1000
0010
0100
0001
0100
0001
1000
0001
0100
0001
0010
0100
,
1000
0100
1000
0001
0010
0100
0010
0001
0100
0010
0100
0001
0010
0100
1000
0001
,
1000
0100
1000
0010
0100
0010
0100
0001
0010
0001
0010
0100
1000
0100
1000
0010
,
0100
0001
0010
0001
1000
0100
1000
0010
1000
0001
0100
0001
0010
0100
1000
0001
,
0100
0001
0010
0100
0010
0001
0100
0010
1000
0100
1000
0010
0100
0001
1000
0010
,
0100
0000
0000
0000
;
